/ 雑記帳

mplayer nvidia ドライバー設定

# Write your default config options here!
vo=vdpau,xv,
vc=ffh264vdpau,ffmpeg12vdpau,ffwmv3vdpau,ffvc1vdpau,

— posted by くま at 02:58 pm   commentComment [0] 

PT1 PT2 最新ドライバー コンパイル

$ hg clone http://hg.honeyplanet.jp/pt1 PT2
$ cd PT2
$ cd driver
$ make
$ cd ../recpt1
$ ./autogen.sh
$ ./configure --enable-b25
$ make

— posted by くま at 09:02 pm   commentComment [0] 

ps3mediaserver

http://code.google.com/p/ps3mediaserver/
サーバーにするPCの能力があるならこのソフトが最適と思われる。
とにかく設定なしで直ぐに動く!
まあJAVAのインストールと設定はしないといけませんが...

— posted by くま at 10:54 am   commentComment [0] 

ffmpg

ffmpeg -i KARYOBIN.mp4 KARYOBIN.mp3

$ ffmpeg -i TMRevolution.mp4 TMRevolution.mp3
FFmpeg version 0.5-30.el5, Copyright (c) 2000-2009 Fabrice Bellard, et al.
configuration: --prefix=/usr --libdir=/usr/lib --shlibdir=/usr/lib --mandir=/usr/share/man --enable-shared --enable-gpl --enable-postproc --enable-swscale --enable-avfilter --enable-avfilter-lavf --enable-pthreads --enable-x11grab --enable-vdpau --disable-avisynth --disable-libamr-nb --disable-libamr-wb --enable-libdc1394 --enable-libfaac --enable-libfaad --enable-libfaadbin --enable-libmp3lame --enable-libtheora --enable-libvorbis --enable-libx264 --enable-libxvid --extra-cflags=-O2 -g -pipe -Wall -Wp,-D_FORTIFY_SOURCE=2 -fexceptions -fstack-protector --param=ssp-buffer-size=4 -m32 -march=i386 -mtune=generic -fasynchronous-unwind-tables --disable-stripping --extra-cflags=-I/usr/include/nvidia-graphics --extra-ldflags=-L/usr/lib/nvidia-graphics
libavutil 49.15. 0 / 49.15. 0
libavcodec 52.20. 0 / 52.20. 0
libavformat 52.31. 0 / 52.31. 0
libavdevice 52. 1. 0 / 52. 1. 0
libavfilter 0. 4. 0 / 0. 4. 0
libswscale 0. 7. 1 / 0. 7. 1
libpostproc 51. 2. 0 / 51. 2. 0
built on Mar 15 2009 14:25:10, gcc: 4.1.2 20080704 (Red Hat 4.1.2-44)

Seems stream 1 codec frame rate differs from container frame rate: 59.93 (59926/1000) -> 59.92 (719/12)
Input #0, mov,mp4,m4a,3gp,3g2,mj2, from 'TMRevolution.mp4':
Duration: 00:04:33.63, start: 0.000000, bitrate: 641 kb/s
Stream #0.0(und): Audio: aac, 44100 Hz, stereo, s16
Stream #0.1(und): Video: h264, yuv420p, 480x360, 59.92 tbr, 29.96 tbn, 59.93 tbc
File 'TMRevolution.mp3' already exists. Overwrite ? [y/N] y
Output #0, mp3, to 'TMRevolution.mp3':
Stream #0.0(und): Audio: libmp3lame, 44100 Hz, stereo, s16, 64 kb/s
Stream mapping:
Stream #0.0 -> #0.0
Press [q] to stop encoding
[libmp3lame @ 0x9aa5fd0]lame: output buffer too small (buffer index: 9404, free bytes: 388)
Audio encoding failed

— posted by くま at 10:38 pm   commentComment [0] 

スプリッター

wget http://hp.vector.co.jp/authors/VA038175/download/tssplitter_lite.zip

— posted by くま at 07:20 pm   commentComment [2] 

タイトルなし

今の自分が
今までの自分が
嘘にならない様に
今まで考えたことが
口にした言葉が嘘にならないように
これからの自分が
生きていく自分が
嫌にならないように
今日、この瞬間を大切に
がんばってみよう

— posted by くま at 12:05 am   commentComment [0] 

ivtv ドライバー

2.6.18-164.9.1.el5 カーネルでivtv-0.10.3 の動作を確認しました。
たぶん かってにLinuxさん のパッチを当ててます。
kb10-082.tar
recv4l2p.tar
saa7115p.tar
tvaudiop.tar
娘にテレビを占領されるので...
IO-DATAのカードを復活させました、

— posted by くま at 07:26 am   commentComment [0] 

<< 2010.1 >>
SMTWTFS
     12
34 56789
10 111213 141516
17181920212223
24 252627282930
31       
 










T: Y: ALL: Online:
ThemePanel
Created in 0.0244 sec.